Скачать бесплатно через торрент лекарство от здоровья


Лекарство от здоровья (2017) скачать торрент в хорошем качестве бесплатно

Подробнее Проф. (полное дублирование) 30,91 ГиБ 9 июн. 2017 г. Файл: a.cure.for.wellness.2016.bdremux..torrent Видео: MPEG-4 AVC, 23.9 Mбит/с, 1920x1080Аудио: Русский (DTS, 6 ch, 768 Кбит/с), (AC3, 2 ch, 192 Кбит/с), украинский (AC3, 6 ch, 448 Кбит/с), английский (DTS-HD MA, 8 ch, 4929 Кбит/с) Подробнее Проф. (полное дублирование) 1,37 ГиБ 8 июн. 2017 г. Подробнее Проф. (полное дублирование) 7,83 ГиБ 8 июн. 2017 г. Подробнее Проф. (полное дублирование) 14,59 ГиБ 8 июн. 2017 г. Файл: a.cure.for.wellness.2016.lic.bdrip.1080p..torrent Видео данные: MPEG-4 AVC, 11.5 Mбит/с, 1920x1080Аудио данные: Русский (DTS, 6 ch, 768 Кбит/с), (AC3, 6 ch, 448 Кбит/с), английский (DTS-ES, 6 ch, 1510 Кбит/с) Подробнее Проф. (чистый звук) 1,37 ГиБ 1 июн. 2017 г. Подробнее Проф. (чистый звук) 6,03 ГиБ 1 июн. 2017 г. Подробнее Проф. (чистый звук) 10,66 ГиБ 1 июн. 2017 г. Подробнее Любительский (многоголосный) 31,67 ГиБ 1 июн. 2017 г. Файл: a.cure.for.wellness.2016.bdremux.1080p..torrent Видео: MPEG-4 AVC, 23.9 Mбит/с, 1920x1080Аудио: Русский (DTS, 6 ch, 1510 Кбит/с), (AC3, 6 ch, 640 Кбит/с), английский (DTS-HD MA, 8 ch, 4929 Кбит/с) Подробнее Любительский (многоголосный) 1,37 ГиБ 28 мая 2017 г. Подробнее Любительский (многоголосный) 6,03 ГиБ 28 мая 2017 г. Подробнее Любительский (многоголосный) 10,66 ГиБ 28 мая 2017 г. Подробнее Проф. (полное дублирование) [звук из кинотеатра] 1,37 ГиБ 26 мая 2017 г. Подробнее Проф. (полное дублирование) [звук из кинотеатра] 2,05 ГиБ 26 мая 2017 г. Подробнее Проф. (полное дублирование) 1,37 ГиБ 30 мар. 2017 г. Подробнее Проф. (полное дублирование) 2,05 ГиБ 30 мар. 2017 г. Подробнее Любительский (многоголосный) 1,37 ГиБ 25 февр. 2017 г.

zona-film.com

Лекарство от здоровья через торрент

Раздают: 8 [ 2 KB/s ]
Размер: 1.37 GB | Добавлен: 4 мес. 23 д. назад | Торрент скачан:695 раз
Реклама Дарим 3000 рублей за регистрацию, не упусти свой шанс получить шикарный бонус!!!

01-06-2017 14:12 Лекарство от здоровья Скачать торрент  

Лекарство от здоровья / A Cure for Wellness Год выпуска: 2016Страна: Германия, СШАЖанр: ужасы, фантастика, фэнтези, триллер, драма, детектив

Продолжительность: 02:28:12Перевод: Дубляж [Чистый звук]Примечание: Присутствует реклама казино!

Режиссер: Гор ВербинскиВ ролях: Дэйн ДеХаан (Lockhart), Джейсон Айзекс (Volmer), Миа Гот (Hannah), Иво Нанди (Enrico), Адриан Шиллер (Deputy Director), Селия Имри (Victoria Watkins), Гарри Гронер (Pembroke), Томас Норстрем (Frank Hill), Ашок Манданна (Ron Nair), Магнус Креппер (Pieter The Vet), Питер Бенедикт (Constable), Михаэль Мендль (Bartender)Описание: Молодой амбициозный сотрудник отправляется в затерянный в швейцарских Альпах оздоровительный центр, чтобы вернуть оттуда руководителя своей компании. Но по прибытии он понимает, что чудодейственные процедуры спа-салона вовсе не те, чем кажутся. В то время как парень начинает распутывать страшные тайны этого места, его здравый ум проходит настоящую проверку на прочность. Похоже, теперь он страдает той же странной болезнью, по причине которой здесь остаются другие гости центра, желающие получить свою дозу лекарства.Рейтинг: MPAA: R - Лицам до 17 лет обязательно присутствие взрослогоКачество: HDRipФормат: AVIВидео: XviD, 720x400 (16:9), 1183 kbps, 23,976 fps, 0,171 bppАудио: AC3 / 2.0 / 48 kHz / 128 kbps / ОбщееПолное имя : E:\A.Cure.for.Wellness.2016.D.HDRip.14OOMB_KOSHARA.aviФормат : AVIФормат/Информация : Audio Video InterleaveРазмер файла : 1,37 ГбайтПродолжительность : 2 ч. 28 м.Общий поток : 1320 Кбит/секПрограмма кодирования : VirtualDubMod 1.5.10.2 (build 2540/release)Библиотека кодирования : VirtualDubMod build 2540/release

ВидеоИдентификатор : 0Формат : MPEG-4 VisualПрофиль формата : Advanced [email protected]Параметр BVOP формата : 2Параметр QPel формата : НетПараметр GMC формата : Без точки переходаПараметр матрицы формата : Default (MPEG)Идентификатор кодека : XVIDИдентификатор кодека/Подсказка : XviDПродолжительность : 2 ч. 28 м.Битрейт : 1183 Кбит/секШирина : 720 пикселейВысота : 400 пикселейСоотношение сторон : 16:9Частота кадров : 23,976 (24000/1001) кадра/секЦветовое пространство : YUVСубдискретизация насыщенности : 4:2:0Битовая глубина : 8 битТип развёртки : ПрогрессивнаяМетод сжатия : С потерямиБит/(Пиксели*Кадры) : 0.171Размер потока : 1,22 Гбайт (90%)Библиотека кодирования : XviD 1.2.1 (UTC 2008-12-04)

АудиоИдентификатор : 1Формат : AC-3Формат/Информация : Audio Coding 3Параметр Endianness формата : BigИдентификатор кодека : 2000Продолжительность : 2 ч. 28 м.Вид битрейта : ПостоянныйБитрейт : 128 Кбит/секКаналы : 2 каналаРасположение каналов : Front: L RЧастота : 48,0 КГцЧастота кадров : 31,250 кадров/сек (1536 spf)Битовая глубина : 16 битМетод сжатия : С потерямиРазмер потока : 136 Мбайт (10%)Выравнивание : Разделение по промежуткамПродолжительность промежутка : 42 мс. (1,00 видеокадр)Время предзагрузки промежутка : 500 мс.ServiceKind/String : Complete Main

Скачать Лекарство от здоровья через торрент http://i3.imageban.ru/out/2017/06/01/8905fec999361fec164a9d2a88c59dcc.jpg Скачать фильм Лекарство от здоровья через торрент бесплантно в хорошем качестве Описание: Молодой амбициозный сотрудник отправляется в затерянный в швейцарских Альпах оздоровительный центр, чтобы вернуть оттуда ... 2017-06-01 14:12 10 10 15

Loading...

Loading...

% Раздел Тема Автор DL S | L
Фильмы 2016 [DVDrip, WEB-DLRip, HDrip] (DUB, MVO) [ 2.18 GB ] Лекарство от здоровья / A Cure for Wellness [2016 BDRip] - [] Twi7ter Скачать
Фильмы (Blu-ray, BD-Remux, HDDVD) [ 30.26 GB ] Лекарство от здоровья / A Cure for Wellness [2016 BD Remux 1080p] DUB [] bober100 Скачать
R.G.Resident - Фильмы, Видео [ 7.46 GB ] Лекарство от здоровья / A Cure for Wellness [2016 BDRip 720p] - [] - R.G.Resident schultz Скачать
Фильмы без перевода [ 29.61 GB ] Лекарство от здоровья / A Cure for Wellness [2017 BD Remux] [Оригинал-ENG] smaster Скачать
Фильмы 2016 [DVDrip, WEB-DLRip, HDrip] (DUB, MVO) [ 1.46 GB ] Лекарство от здоровья / A Cure for Wellness [2016 BDRip] - [] Twi7ter Скачать
R.G.Resident - Фильмы, Видео [ 3.14 GB ] Лекарство от здоровья / A Cure for Wellness [2016 BDRip-AVC ] DUB [ Blu-ray EUR] -Lexx- Скачать
Фильмы [HD 720p, 1080p] (Хороший звук DUB, MVO) [ 14.59 GB ] Лекарство от здоровья / A Cure for Wellness [2016 BDRip 1080p] DUB [ Blu-ray EUR] -Lexx- Скачать

Рекламный пират

01-06-2017 18:25 Лекарство от здоровья Скачать торрент  

сцыкотный фильм?

01-06-2017 18:51 Лекарство от здоровья Скачать торрент  

Крутой фильм...

02-06-2017 11:42 Лекарство от здоровья Скачать торрент  

А сэмпл то что делает от другого фильма?

02-06-2017 11:56 Лекарство от здоровья Скачать торрент  

Tiberium25 писал(а):

А сэмпл то что делает от другого фильма?

Сэмпл именно с этого фильма, не вводите пользователей в заблуждение.

Дорогой пользователь! Огромная просьба, поблагодарите релизера, оцените раздачу и оставьте свои комментарий, если Вы скачали Лекарство от здоровья через торрент бесплатно! Внесите свою лепту в развитие PiratBit!

Комментировать посты могут только пользователи прошедшие не сложную регистрацию

Лекарство от здоровья через торрент Скачать бесплатно Лекарство от здоровья Лекарство от здоровья скачать торрент Лекарство от здоровья смотреть онлайн Cкачать фильм Лекарство от здоровья бесплатно Лекарство от здоровья скачать торрент в хорошем качестве Лекарство от здоровья смотреть онлайн бесплатно в хорошем качестве

Вы можете начинать темыВы можете отвечать на сообщенияВы не можете редактировать свои сообщенияВы не можете удалять свои сообщенияВы не можете голосовать в опросахВы не можете прикреплять файлы к сообщениямВы можете скачивать файлы

piratbit.ru

Лекарство от здоровья через торрент

Раздают: 6 [ 0 KB/s ]
Размер: 1.37 GB | Добавлен: 4 мес. 27 д. назад | Торрент скачан:413 раз
Реклама Дарим 3000 рублей за регистрацию, не упусти свой шанс получить шикарный бонус!!!

28-05-2017 19:49 Лекарство от здоровья Скачать торрент  

Лекарство от здоровья / A Cure for Wellness

Год выпуска: 2016Страна: Германия, СШАЖанр: ужасы, фантастика, фэнтези, триллер, драма, детективПродолжительность: 02:28:12Перевод: Любительский многоголосый [Синема УС]Субтитры: Отсутствуют

Режиссер: Гор Вербински

Бюджет: $40 000 000Премьера в мире: 10 декабря 2016

В ролях: Дэйн ДеХаан, Джейсон Айзекс, Миа Гот, Иво Нанди, Адриан Шиллер, Селия Имри, Гарри Гронер, Томас Норстрем, Ашок Манданна, Магнус Креппер

Описание: Молодой амбициозный сотрудник отправляется в затерянный в швейцарских Альпах оздоровительный центр, чтобы вернуть оттуда руководителя своей компании. Но по прибытии он понимает, что чудодейственные процедуры спа-салона вовсе не те, чем кажутся. В то время как парень начинает распутывать страшные тайны этого места, его здравый ум проходит настоящую проверку на прочность. Похоже, теперь он страдает той же странной болезнью, по причине которой здесь остаются другие гости центра, желающие получить свою дозу лекарства.

Качество: HDRipФормат: AVIВидео кодек: XviDАудио кодек: AC3Видео: MPEG4, XviD, 720x400 (16:9), 23.976 fps, 1 183 Kbps (0.171 bit/pixel)Аудио: AC-3, 48.0 KHz, 2 ch, 128 Kbps, CBR

ПРИСУТСТВУЕТ РЕКЛАМА Скачать Лекарство от здоровья через торрент http://s019.radikal.ru/i620/1705/76/253de15939f9.png Скачать фильм Лекарство от здоровья через торрент бесплантно в хорошем качестве Описание: Молодой амбициозный сотрудник отправляется в затерянный в швейцарских Альпах оздоровительный центр, чтобы вернуть оттуда ... 2017-05-28 19:49 9.7 10 9

Loading...

Loading...

% Раздел Тема Автор DL S | L
Фильмы 2016 [DVDrip, WEB-DLRip, HDrip] (DUB, MVO) [ 2.18 GB ] Лекарство от здоровья / A Cure for Wellness [2016 BDRip] - [] Twi7ter Скачать
Фильмы (Blu-ray, BD-Remux, HDDVD) [ 30.26 GB ] Лекарство от здоровья / A Cure for Wellness [2016 BD Remux 1080p] DUB [] bober100 Скачать
R.G.Resident - Фильмы, Видео [ 7.46 GB ] Лекарство от здоровья / A Cure for Wellness [2016 BDRip 720p] - [] - R.G.Resident schultz Скачать
Фильмы без перевода [ 29.61 GB ] Лекарство от здоровья / A Cure for Wellness [2017 BD Remux] [Оригинал-ENG] smaster Скачать
Фильмы 2016 [DVDrip, WEB-DLRip, HDrip] (DUB, MVO) [ 1.46 GB ] Лекарство от здоровья / A Cure for Wellness [2016 BDRip] - [] Twi7ter Скачать
R.G.Resident - Фильмы, Видео [ 3.14 GB ] Лекарство от здоровья / A Cure for Wellness [2016 BDRip-AVC ] DUB [ Blu-ray EUR] -Lexx- Скачать
Фильмы [HD 720p, 1080p] (Хороший звук DUB, MVO) [ 14.59 GB ] Лекарство от здоровья / A Cure for Wellness [2016 BDRip 1080p] DUB [ Blu-ray EUR] -Lexx- Скачать

Последний раз редактировалось: Airsoft93rus (2017-05-28 21:11), всего редактировалось 1 раз

Рекламный пират

29-05-2017 13:06 Лекарство от здоровья Скачать торрент  

Фильм полное г...

30-05-2017 23:08 Лекарство от здоровья Скачать торрент  

Крутой фильм....

01-06-2017 04:25 Лекарство от здоровья Скачать торрент  

полное или крутой фильм ?

Дорогой пользователь! Огромная просьба, поблагодарите релизера, оцените раздачу и оставьте свои комментарий, если Вы скачали Лекарство от здоровья через торрент бесплатно! Внесите свою лепту в развитие PiratBit!

Комментировать посты могут только пользователи прошедшие не сложную регистрацию

Лекарство от здоровья через торрент Скачать бесплатно Лекарство от здоровья Лекарство от здоровья скачать торрент Лекарство от здоровья смотреть онлайн Cкачать фильм Лекарство от здоровья бесплатно Лекарство от здоровья скачать торрент в хорошем качестве Лекарство от здоровья смотреть онлайн бесплатно в хорошем качестве

Вы можете начинать темыВы можете отвечать на сообщенияВы не можете редактировать свои сообщенияВы не можете удалять свои сообщенияВы не можете голосовать в опросахВы не можете прикреплять файлы к сообщениямВы можете скачивать файлы

piratbit.ru

Лекарство от здоровья через торрент

x264 [info]: frame I:1865 Avg QP:12.62 size:156533x264 [info]: frame P:48073 Avg QP:15.22 size: 54285x264 [info]: frame B:160892 Avg QP:16.74 size: 16189

GeneralUnique ID : 221432887381291812939159432242509692877 (0xA6966C3FC3D28DD4A83FD473CED4BFCD)Complete name : D:\download\A.Cure.for.Wellness.2016.BDRip 720р by schultz R.G.Resident.mkvFormat : MatroskaFormat version : Version 4 / Version 2File size : 7.46 GiBDuration : 2 h 26 minOverall bit rate : 7 290 kb/sEncoded date : UTC 2017-06-09 04:48:19Writing application : mkvmerge v8.9.0 ('Father Daughter') 64bitWriting library : libebml v1.3.3 + libmatroska v1.4.4

VideoID : 1Format : AVCFormat/Info : Advanced Video CodecFormat profile : [email protected] settings, CABAC : YesFormat settings, ReFrames : 11 framesCodec ID : V_MPEG4/ISO/AVCDuration : 2 h 26 minBit rate : 5 012 kb/sWidth : 1 280 pixelsHeight : 720 pixelsDisplay aspect ratio : 16:9Frame rate mode : ConstantFrame rate : 23.976 (23976/1000) FPSColor space : YUVChroma subsampling : 4:2:0Bit depth : 8 bitsScan type : ProgressiveBits/(Pixel*Frame) : 0.227Stream size : 5.13 GiB (69%)Writing library : x264 core 146 r2538 121396cEncoding settings : cabac=1 / ref=11 / deblock=1:-3:-3 / analyse=0x3:0x113 / me=umh / subme=11 / psy=1 / psy_rd=1.00:0.00 / mixed_ref=1 / me_range=48 / chroma_me=1 / trellis=2 / 8x8dct=1 / cqm=0 / deadzone=21,11 / fast_pskip=0 / chroma_qp_offset=-2 / threads=12 / lookahead_threads=3 / sliced_threads=0 / nr=0 / decimate=0 / interlaced=0 / bluray_compat=0 / constrained_intra=0 / bframes=10 / b_pyramid=2 / b_adapt=2 / b_bias=0 / direct=3 / weightb=1 / open_gop=0 / weightp=2 / keyint=240 / keyint_min=23 / scenecut=40 / intra_refresh=0 / rc_lookahead=40 / rc=2pass / mbtree=0 / bitrate=5012 / ratetol=1.0 / qcomp=0.60 / qpmin=0 / qpmax=69 / qpstep=4 / cplxblur=20.0 / qblur=0.5 / vbv_maxrate=50000 / vbv_bufsize=62500 / nal_hrd=none / filler=0 / ip_ratio=1.40 / pb_ratio=1.30 / aq=1:1.00Language : EnglishDefault : YesForced : No

Audio #1ID : 2Format : DTSFormat/Info : Digital Theater SystemsMode : 16Format settings, Endianness : BigCodec ID : A_DTSDuration : 2 h 26 minBit rate mode : ConstantBit rate : 768 kb/sChannel(s) : 6 channelsChannel positions : Front: L C R, Side: L R, LFESampling rate : 48.0 kHzFrame rate : 93.750 FPS (512 spf)Bit depth : 24 bitsCompression mode : LossyStream size : 805 MiB (11%)Language : RussianDefault : YesForced : No

Audio #2ID : 3Format : DTSFormat/Info : Digital Theater SystemsFormat profile : ES Matrix / CoreMode : 16Format settings, Endianness : BigCodec ID : A_DTSDuration : 2 h 26 minBit rate mode : ConstantBit rate : 1 509 kb/sChannel(s) : 7 channels / 6 channelsChannel positions : Front: L C R, Side: L R, Back: C, LFE / Front: L C R, Side: L R, LFESampling rate : 48.0 kHzFrame rate : 93.750 FPS (512 spf)Bit depth : 24 bitsCompression mode : LossyStream size : 1.54 GiB (21%)Language : EnglishDefault : NoForced : No

Text #1ID : 4Format : UTF-8Codec ID : S_TEXT/UTF8Codec ID/Info : UTF-8 Plain TextDuration : 2 h 13 minBit rate : 0 b/sCount of elements : 12Stream size : 445 Bytes (0%)Title : ForcedLanguage : RussianDefault : YesForced : No

Text #2ID : 5Format : UTF-8Codec ID : S_TEXT/UTF8Codec ID/Info : UTF-8 Plain TextDuration : 2 h 23 minBit rate : 45 b/sCount of elements : 1202Stream size : 48.0 KiB (0%)Title : FullLanguage : RussianDefault : NoForced : No

Text #3ID : 6Format : UTF-8Codec ID : S_TEXT/UTF8Codec ID/Info : UTF-8 Plain TextDuration : 2 h 17 minBit rate : 34 b/sCount of elements : 1314Stream size : 34.8 KiB (0%)Title : FullLanguage : EnglishDefault : NoForced : No

Text #4ID : 7Format : UTF-8Codec ID : S_TEXT/UTF8Codec ID/Info : UTF-8 Plain TextDuration : 2 h 20 minBit rate : 37 b/sCount of elements : 1475Stream size : 38.4 KiB (0%)Title : SDHLanguage : EnglishDefault : NoForced : No

Menu00:00:00.000 : en: Chapter 100:03:37.092 : en: Chapter 200:09:18.349 : en: Chapter 300:13:22.343 : en: Chapter 400:16:55.681 : en: Chapter 500:22:49.910 : en: Chapter 600:27:42.035 : en: Chapter 700:32:01.878 : en: Chapter 800:38:23.843 : en: Chapter 900:44:51.397 : en: Chapter 1000:51:22.162 : en: Chapter 1100:56:50.782 : en: Chapter 1201:01:31.062 : en: Chapter 1301:08:08.293 : en: Chapter 1401:13:12.221 : en: Chapter 1501:17:02.284 : en: Chapter 1601:21:08.447 : en: Chapter 1701:25:17.195 : en: Chapter 1801:29:20.355 : en: Chapter 1901:34:59.277 : en: Chapter 2001:40:19.513 : en: Chapter 2101:43:49.181 : en: Chapter 2201:47:46.794 : en: Chapter 2301:52:30.661 : en: Chapter 2401:56:30.775 : en: Chapter 2502:04:22.121 : en: Chapter 2602:09:17.458 : en: Chapter 2702:19:59.057 : en: Chapter 28

piratbit.ru


Смотрите также